Pages Navigation Menu

Download | Watch Latest Movies | Shows Online

Manathil Nindraval (Tholi Prema) (2019) 1080p WEB-HD AVC [Dual Audio][Tamil+Telugu]

Format                      : Matroska
Format version : Version 4
File size : 4.99 GiB
Duration : 2 h 15 min
Overall bit rate : 5 261 kb/s
Encoded date : UTC 2019-06-16 12:43:49
Writing application : mkvmerge v33.1.0 ('Primrose') 32-bit
Writing library : libebml v1.3.7 + libmatroska v1.5.0

Video
ID : 1
Format : AVC
Format/Info : Advanced Video Codec
Format profile : Baseline@L4
Format settings : 1 Ref Frames
Format settings, CABAC : No
Format settings, Reference : 1 frame
Codec ID : V_MPEG4/ISO/AVC
Duration : 2 h 15 min
Bit rate mode : Constant
Bit rate : 5 120 kb/s
Width : 1 920 pixels
Height : 1 080 pixels
Display aspect ratio : 16:9
Frame rate mode : Constant
Frame rate : 25.000 FPS
Color space : YUV
Chroma subsampling : 4:2:0
Bit depth : 8 bits
Scan type : Progressive
Bits/(Pixel*Frame) : 0.099
Stream size : 4.78 GiB (96%)
Language : Telugu
Default : Yes
Forced : No

Audio #1
ID : 2
Format : AC-3
Format/Info : Audio Coding 3
Commercial name : Dolby Digital
Codec ID : A_AC3
Duration : 2 h 15 min
Bit rate mode : Constant
Bit rate : 96.0 kb/s
Channel(s) : 2 channels
Channel layout : L R
Sampling rate : 44.1 kHz
Frame rate : 28.711 FPS (1536 SPF)
Bit depth : 16 bits
Compression mode : Lossy
Stream size : 93.3 MiB (2%)
Language : Tamil
Service kind : Complete Main
Default : No
Forced : No

Audio #2
ID : 3
Format : AAC LC
Format/Info : Advanced Audio Codec Low Complexity
Codec ID : A_AAC-2
Duration : 2 h 15 min
Bit rate : 126 kb/s
Channel(s) : 2 channels
Channel layout : L R
Sampling rate : 44.1 kHz
Frame rate : 43.066 FPS (1024 SPF)
Compression mode : Lossy
Stream size : 122 MiB (2%)
Language : Telugu
Default : No
Forced : No

Text
ID : 4
Format : UTF-8
Codec ID : S_TEXT/UTF8
Codec ID/Info : UTF-8 Plain Text
Duration : 2 h 10 min
Bit rate : 57 b/s
Count of elements : 1949
Stream size : 54.8 KiB (0%)
Language : English
Default : No
Forced : No







SINGLE DIRECT FAST LINKS

https://www.heroupload.com/a4530aedb56bdeb8/Manathil.Nindraval.Tholi.Prema.2019.WEB-HD.1080p.Tamil.Org+Telugu.mkv

1GB LINKS


https://www.heroupload.com/b918c870dd884996/Manathil.Nindraval.Tholi.Prema.2019.WEB-HD.1080p.Tamil.Org+Telugu.part1.rar
https://www.heroupload.com/c64d35742e7b7013/Manathil.Nindraval.Tholi.Prema.2019.WEB-HD.1080p.Tamil.Org+Telugu.part2.rar
https://www.heroupload.com/aaecd17fc7cc1ebc/Manathil.Nindraval.Tholi.Prema.2019.WEB-HD.1080p.Tamil.Org+Telugu.part3.rar
https://www.heroupload.com/a53bed386a9322a0/Manathil.Nindraval.Tholi.Prema.2019.WEB-HD.1080p.Tamil.Org+Telugu.part4.rar
https://www.heroupload.com/0c742691ba081ccf/Manathil.Nindraval.Tholi.Prema.2019.WEB-HD.1080p.Tamil.Org+Telugu.part5.rar

Buy Premium From My Links & Support Me