Pages Navigation Menu

Download | Watch Latest Movies | Shows Online

Monster (2019) Tamil – 1080p – WEB-DL – AVC – DD5.1 – ESub-BWT Exclusive

Format                      : Matroska
Format version : Version 4
File size : 7.36 GiB
Duration : 2 h 17 min
Overall bit rate : 7 653 kb/s
Encoded date : UTC 2019-06-16 12:45:49
Writing application : mkvmerge v33.1.0 ('Primrose') 32-bit
Writing library : libebml v1.3.7 + libmatroska v1.5.0

Video
ID : 1
Format : AVC
Format/Info : Advanced Video Codec
Format profile : High@L4
Format settings : CABAC / 4 Ref Frames
Format settings, CABAC : Yes
Format settings, Reference : 4 frames
Format settings, GOP : M=4, N=48
Codec ID : V_MPEG4/ISO/AVC
Duration : 2 h 17 min
Bit rate mode : Constant
Bit rate : 7 011 kb/s
Nominal bit rate : 10 000 kb/s
Width : 1 920 pixels
Height : 816 pixels
Display aspect ratio : 2.35:1
Frame rate mode : Constant
Frame rate : 24.000 FPS
Color space : YUV
Chroma subsampling : 4:2:0
Bit depth : 8 bits
Scan type : Progressive
Bits/(Pixel*Frame) : 0.186
Stream size : 6.75 GiB (92%)
Language : Tamil
Default : Yes
Forced : No
Color range : Limited
Color primaries : BT.709
Transfer characteristics : BT.709
Matrix coefficients : BT.709

Audio
ID : 2
Format : E-AC-3
Format/Info : Enhanced AC-3
Commercial name : Dolby Digital Plus
Codec ID : A_EAC3
Duration : 2 h 17 min
Bit rate mode : Constant
Bit rate : 640 kb/s
Channel(s) : 6 channels
Channel layout : L R C LFE Ls Rs
Sampling rate : 48.0 kHz
Frame rate : 31.250 FPS (1536 SPF)
Compression mode : Lossy
Stream size : 631 MiB (8%)
Language : Tamil
Service kind : Complete Main
Default : Yes
Forced : No

Text
ID : 3
Format : UTF-8
Codec ID : S_TEXT/UTF8
Codec ID/Info : UTF-8 Plain Text
Duration : 2 h 15 min
Bit rate : 35 b/s
Count of elements : 1062
Stream size : 34.8 KiB (0%)
Language : English
Default : No
Forced : No






SINGLE DIRECT FAST LINKS

https://www.heroupload.com/cdb3c68ed58615d9/Monster.2019.Tamil.WEB-DL.1080p.AVC.UNTOUCHED.DD5.1.ESub-BWT.mkv

1GB LINKS


https://www.heroupload.com/592ff70dbdccb59d/Monster.2019.Tamil.WEB-DL.1080p.AVC.UNTOUCHED.DD5.1.ESub-BWT.part1.rar
https://www.heroupload.com/92b8c74e79e5bbd7/Monster.2019.Tamil.WEB-DL.1080p.AVC.UNTOUCHED.DD5.1.ESub-BWT.part2.rar
https://www.heroupload.com/49ed2fcac5ab83c6/Monster.2019.Tamil.WEB-DL.1080p.AVC.UNTOUCHED.DD5.1.ESub-BWT.part3.rar
https://www.heroupload.com/18f262a9abc5b2a6/Monster.2019.Tamil.WEB-DL.1080p.AVC.UNTOUCHED.DD5.1.ESub-BWT.part4.rar
https://www.heroupload.com/6c0f439801c8bbd8/Monster.2019.Tamil.WEB-DL.1080p.AVC.UNTOUCHED.DD5.1.ESub-BWT.part5.rar
https://www.heroupload.com/062629597ea83c29/Monster.2019.Tamil.WEB-DL.1080p.AVC.UNTOUCHED.DD5.1.ESub-BWT.part6.rar
https://www.heroupload.com/6641b0b949b42933/Monster.2019.Tamil.WEB-DL.1080p.AVC.UNTOUCHED.DD5.1.ESub-BWT.part7.rar
https://www.heroupload.com/a17af0b1f1788842/Monster.2019.Tamil.WEB-DL.1080p.AVC.UNTOUCHED.DD5.1.ESub-BWT.part8.rar

Buy Premium From My Links & Support Me