Pages Navigation Menu

Download | Watch Latest Movies | Shows Online

NGK (2019) Tamil – 1080p – WEB-DL – AVC – DD5.1 – ESub-BWT Exclusive

Format                      : Matroska
Format version : Version 4
File size : 8.68 GiB
Duration : 2 h 27 min
Overall bit rate : 8 426 kb/s
Encoded date : UTC 2019-07-04 21:00:44
Writing application : mkvmerge v33.1.0 ('Primrose') 32-bit
Writing library : libebml v1.3.7 + libmatroska v1.5.0

Video
ID : 1
Format : AVC
Format/Info : Advanced Video Codec
Format profile : [email protected]
Format settings : CABAC / 4 Ref Frames
Format settings, CABAC : Yes
Format settings, Reference : 4 frames
Format settings, GOP : M=4, N=48
Codec ID : V_MPEG4/ISO/AVC
Duration : 2 h 27 min
Bit rate mode : Constant
Bit rate : 7 784 kb/s
Nominal bit rate : 10 000 kb/s
Width : 1 920 pixels
Height : 816 pixels
Display aspect ratio : 2.35:1
Frame rate mode : Constant
Frame rate : 24.000 FPS
Color space : YUV
Chroma subsampling : 4:2:0
Bit depth : 8 bits
Scan type : Progressive
Bits/(Pixel*Frame) : 0.207
Stream size : 8.02 GiB (92%)
Language : Tamil
Default : Yes
Forced : No
Color range : Limited
Color primaries : BT.709
Transfer characteristics : BT.709
Matrix coefficients : BT.709

Audio
ID : 2
Format : E-AC-3
Format/Info : Enhanced AC-3
Commercial name : Dolby Digital Plus
Codec ID : A_EAC3
Duration : 2 h 27 min
Bit rate mode : Constant
Bit rate : 640 kb/s
Channel(s) : 6 channels
Channel layout : L R C LFE Ls Rs
Sampling rate : 48.0 kHz
Frame rate : 31.250 FPS (1536 SPF)
Compression mode : Lossy
Stream size : 675 MiB (8%)
Language : Tamil
Service kind : Complete Main
Default : Yes
Forced : No

Text
ID : 3
Format : UTF-8
Codec ID : S_TEXT/UTF8
Codec ID/Info : UTF-8 Plain Text
Duration : 2 h 23 min
Bit rate : 60 b/s
Count of elements : 2075
Stream size : 63.1 KiB (0%)
Language : English
Default : Yes
Forced : No






SINGLE DIRECT FAST LINKS

https://www.heroupload.com/13a818bb715610dd/NGK.2019.Tamil.Org.Vers.WEB-DL.1080p.AVC.UNTOUCHED.DD5.1.ESub-BWT.mkv

1GB LINKS


https://www.heroupload.com/6fa754eea60ad265/NGK.2019.Tamil.Org.Vers.WEB-DL.1080p.AVC.UNTOUCHED.DD5.1.ESub-BWT.part01.rar
https://www.heroupload.com/3b60d7786df7b67f/NGK.2019.Tamil.Org.Vers.WEB-DL.1080p.AVC.UNTOUCHED.DD5.1.ESub-BWT.part02.rar
https://www.heroupload.com/7534e941060674f0/NGK.2019.Tamil.Org.Vers.WEB-DL.1080p.AVC.UNTOUCHED.DD5.1.ESub-BWT.part03.rar
https://www.heroupload.com/e840f5dc7511b029/NGK.2019.Tamil.Org.Vers.WEB-DL.1080p.AVC.UNTOUCHED.DD5.1.ESub-BWT.part04.rar
https://www.heroupload.com/9652b1c64d09b6e4/NGK.2019.Tamil.Org.Vers.WEB-DL.1080p.AVC.UNTOUCHED.DD5.1.ESub-BWT.part05.rar
https://www.heroupload.com/a25feba4d32fbb09/NGK.2019.Tamil.Org.Vers.WEB-DL.1080p.AVC.UNTOUCHED.DD5.1.ESub-BWT.part06.rar
https://www.heroupload.com/999a8c2de39d1ad2/NGK.2019.Tamil.Org.Vers.WEB-DL.1080p.AVC.UNTOUCHED.DD5.1.ESub-BWT.part07.rar
https://www.heroupload.com/f6b3362fd3d6a2e6/NGK.2019.Tamil.Org.Vers.WEB-DL.1080p.AVC.UNTOUCHED.DD5.1.ESub-BWT.part08.rar
https://www.heroupload.com/fa997f6efc9dffea/NGK.2019.Tamil.Org.Vers.WEB-DL.1080p.AVC.UNTOUCHED.DD5.1.ESub-BWT.part09.rar

Buy Premium From My Links & Support Me
//deloplen.com/afu.php?zoneid=2215143