Pages Navigation Menu

Download | Watch Latest Movies | Shows Online

NGK (2019) Tamil – 720p – HDRip – x264 – DD5.1 – ESub-BWT

Format                      : Matroska
Format version : Version 4
File size : 1.61 GiB
Duration : 2 h 27 min
Overall bit rate : 1 565 kb/s
Encoded date : UTC 2019-07-04 20:56:27
Writing application : mkvmerge v33.1.0 ('Primrose') 32-bit
Writing library : libebml v1.3.7 + libmatroska v1.5.0

Video
ID : 1
Format : AVC
Format/Info : Advanced Video Codec
Format profile : High@L3.1
Format settings : CABAC / 5 Ref Frames
Format settings, CABAC : Yes
Format settings, Reference : 5 frames
Codec ID : V_MPEG4/ISO/AVC
Duration : 2 h 27 min
Bit rate : 1 371 kb/s
Width : 1 280 pixels
Height : 544 pixels
Display aspect ratio : 2.35:1
Original display aspect rat : 2.35:1
Frame rate mode : Constant
Frame rate : 24.000 FPS
Color space : YUV
Chroma subsampling : 4:2:0
Bit depth : 8 bits
Scan type : Progressive
Bits/(Pixel*Frame) : 0.082
Stream size : 1.41 GiB (88%)
Language : Tamil
Default : Yes
Forced : No
Color range : Limited
Color primaries : BT.709
Transfer characteristics : BT.709
Matrix coefficients : BT.709

Audio
ID : 2
Format : E-AC-3
Format/Info : Enhanced AC-3
Commercial name : Dolby Digital Plus
Codec ID : A_EAC3
Duration : 2 h 27 min
Bit rate mode : Constant
Bit rate : 192 kb/s
Channel(s) : 6 channels
Channel layout : L R C LFE Ls Rs
Sampling rate : 48.0 kHz
Frame rate : 31.250 FPS (1536 SPF)
Compression mode : Lossy
Stream size : 203 MiB (12%)
Language : Tamil
Service kind : Complete Main
Default : Yes
Forced : No

Text
ID : 3
Format : UTF-8
Codec ID : S_TEXT/UTF8
Codec ID/Info : UTF-8 Plain Text
Duration : 2 h 23 min
Bit rate : 60 b/s
Count of elements : 2075
Stream size : 63.1 KiB (0%)
Language : English
Default : Yes
Forced : No








SINGLE DIRECT FAST LINKS


https://www.heroupload.com/a13bf85f89a9b5d4/NGK.2019.Tamil.Org.Vers.HDRip.720p.x264.DD5.1.ESub-BWT.mkv

Buy Premium From My Links & Support Me