Pages Navigation Menu

Download | Watch Latest Movies | Shows Online

Mouname Istam (2019) Telugu – 1080p – WEB-DL – AVC – AC3 – ESub-BWT

Format                      : Matroska
Format version : Version 4
File size : 6.23 GiB
Duration : 2 h 15 min
Overall bit rate : 6 581 kb/s
Encoded date : UTC 2019-07-10 20:24:32
Writing application : mkvmerge v33.1.0 ('Primrose') 32-bit
Writing library : libebml v1.3.7 + libmatroska v1.5.0

Video
ID : 1
Format : AVC
Format/Info : Advanced Video Codec
Format profile : [email protected]
Format settings : CABAC / 4 Ref Frames
Format settings, CABAC : Yes
Format settings, Reference : 4 frames
Codec ID : V_MPEG4/ISO/AVC
Duration : 2 h 15 min
Bit rate : 6 355 kb/s
Width : 1 920 pixels
Height : 1 080 pixels
Display aspect ratio : 16:9
Frame rate mode : Constant
Frame rate : 25.000 FPS
Color space : YUV
Chroma subsampling : 4:2:0
Bit depth : 8 bits
Scan type : Progressive
Bits/(Pixel*Frame) : 0.123
Stream size : 6.01 GiB (97%)
Default : Yes
Forced : No
Color range : Limited
Color primaries : BT.709
Transfer characteristics : BT.709
Matrix coefficients : BT.709

Audio
ID : 2
Format : E-AC-3
Format/Info : Enhanced AC-3
Commercial name : Dolby Digital Plus
Codec ID : A_EAC3
Duration : 2 h 15 min
Bit rate mode : Constant
Bit rate : 224 kb/s
Channel(s) : 2 channels
Channel layout : L R
Sampling rate : 48.0 kHz
Frame rate : 31.250 FPS (1536 SPF)
Compression mode : Lossy
Stream size : 217 MiB (3%)
Language : Telugu
Service kind : Complete Main
Default : Yes
Forced : No

Text
ID : 3
Format : UTF-8
Codec ID : S_TEXT/UTF8
Codec ID/Info : UTF-8 Plain Text
Duration : 2 h 12 min
Bit rate : 62 b/s
Count of elements : 1483
Stream size : 60.6 KiB (0%)
Language : English
Default : Yes
Forced : No

SINGLE DIRECT FAST LINKS

https://www.heroupload.com/12e721da53f1f0c7/Mouname.Istam.2019.Telugu.WEB-DL.1080p.AVC.UNTOUCHED..AC3.ESub-BWT.mkv

1GB LINKS


https://www.heroupload.com/4d80006fbdace642/Mouname.Istam.2019.Telugu.WEB-DL.1080p.AVC.UNTOUCHED..AC3.ESub-BWT.part1.rar
https://www.heroupload.com/10b33b8eff30256e/Mouname.Istam.2019.Telugu.WEB-DL.1080p.AVC.UNTOUCHED..AC3.ESub-BWT.part2.rar
https://www.heroupload.com/311dab21470a2d77/Mouname.Istam.2019.Telugu.WEB-DL.1080p.AVC.UNTOUCHED..AC3.ESub-BWT.part3.rar
https://www.heroupload.com/ab83a2e7cd33cb17/Mouname.Istam.2019.Telugu.WEB-DL.1080p.AVC.UNTOUCHED..AC3.ESub-BWT.part4.rar
https://www.heroupload.com/9188b40675bd6f06/Mouname.Istam.2019.Telugu.WEB-DL.1080p.AVC.UNTOUCHED..AC3.ESub-BWT.part5.rar
https://www.heroupload.com/9713319973692899/Mouname.Istam.2019.Telugu.WEB-DL.1080p.AVC.UNTOUCHED..AC3.ESub-BWT.part6.rar
https://www.heroupload.com/5e8bc09627bd44b5/Mouname.Istam.2019.Telugu.WEB-DL.1080p.AVC.UNTOUCHED..AC3.ESub-BWT.part7.rar

Buy Premium From My Links & Support Me
//serconmp.com/afu.php?zoneid=2215143