Pages Navigation Menu

Download | Watch Latest Movies | Shows Online

Sanjana Reddy (2019) Telugu – 1080p – WEB-DL – AVC – AAC – ESub-BWT

ormat                      : Matroska
Format version : Version 4
File size : 2.60 GiB
Duration : 2 h 34 min
Overall bit rate : 2 407 kb/s
Encoded date : UTC 2019-07-12 10:01:03
Writing application : mkvmerge v33.1.0 ('Primrose') 32-bit
Writing library : libebml v1.3.7 + libmatroska v1.5.0

Video
ID : 1
Format : AVC
Format/Info : Advanced Video Codec
Format profile : High@L4.2
Format settings : CABAC / 4 Ref Frames
Format settings, CABAC : Yes
Format settings, Reference : 4 frames
Codec ID : V_MPEG4/ISO/AVC
Duration : 2 h 34 min
Bit rate : 2 300 kb/s
Width : 1 920 pixels
Height : 816 pixels
Display aspect ratio : 2.35:1
Frame rate mode : Constant
Frame rate : 24.000 FPS
Color space : YUV
Chroma subsampling : 4:2:0
Bit depth : 8 bits
Scan type : Progressive
Bits/(Pixel*Frame) : 0.061
Stream size : 2.46 GiB (95%)
Writing library : x264 core 155 r2901 7d0ff22
Encoding settings : cabac=1 / ref=1 / deblock=1:0:0 / analyse=0x3:0x113 / me=hex / subme=2 / psy=1 / psy_rd=1.00:0.00 / mixed_ref=0 / me_range=16 / chroma_me=1 / trellis=0 / 8x8dct=1 / cqm=0 / deadzone=21,11 / fast_pskip=1 / chroma_qp_offset=0 / threads=25 / lookahead_threads=6 / sliced_threads=0 / nr=0 / decimate=1 / interlaced=0 / bluray_compat=0 / constrained_intra=0 / bframes=3 / b_pyramid=2 / b_adapt=1 / b_bias=0 / direct=1 / weightb=1 / open_gop=0 / weightp=1 / keyint=240 / keyint_min=24 / scenecut=40 / intra_refresh=0 / rc_lookahead=10 / rc=abr / mbtree=1 / bitrate=2300 / ratetol=1.0 / qcomp=0.60 / qpmin=0 / qpmax=69 / qpstep=4 / vbv_maxrate=62500 / vbv_bufsize=78125 / nal_hrd=none / filler=0 / ip_ratio=1.40 / aq=1:1.00
Language : Telugu
Default : Yes
Forced : No
Color range : Limited
Color primaries : BT.709
Transfer characteristics : BT.709
Matrix coefficients : BT.709

Audio
ID : 2
Format : AAC LC
Format/Info : Advanced Audio Codec Low Complexity
Codec ID : A_AAC-2
Duration : 2 h 34 min
Bit rate : 125 kb/s
Channel(s) : 2 channels
Channel layout : L R
Sampling rate : 48.0 kHz
Frame rate : 46.875 FPS (1024 SPF)
Compression mode : Lossy
Stream size : 139 MiB (5%)
Language : Telugu
Default : Yes
Forced : No

Text
ID : 3
Format : UTF-8
Codec ID : S_TEXT/UTF8
Codec ID/Info : UTF-8 Plain Text
Duration : 2 h 34 min
Bit rate : 78 b/s
Count of elements : 2525
Stream size : 88.5 KiB (0%)
Language : English
Default : Yes
Forced : No








SINGLE DIRECT FAST LINKS

https://www.heroupload.com/2d2d9a5cd4382add/Sanjana.Reddy.2019.Telugu.Org.Vers.WEB-DL.1080p.AVC.UNTOUCHED.AAC.ESub-BWT.mkv

700MB LINKS


https://www.heroupload.com/8de7c01fbc4bbd46/Sanjana.Reddy.2019.Telugu.Org.Vers.WEB-DL.1080p.AVC.UNTOUCHED.AAC.ESub-BWT.part1.rar
https://www.heroupload.com/8f1dc0e80fe1f98b/Sanjana.Reddy.2019.Telugu.Org.Vers.WEB-DL.1080p.AVC.UNTOUCHED.AAC.ESub-BWT.part2.rar
https://www.heroupload.com/b842ea6286113713/Sanjana.Reddy.2019.Telugu.Org.Vers.WEB-DL.1080p.AVC.UNTOUCHED.AAC.ESub-BWT.part3.rar
https://www.heroupload.com/9cdcdf06d97165ea/Sanjana.Reddy.2019.Telugu.Org.Vers.WEB-DL.1080p.AVC.UNTOUCHED.AAC.ESub-BWT.part4.rar

Buy Premium From My Links & Support Me